<?xml version="1.0" standalone="no"?>
<!DOCTYPE svg PUBLIC "-//W3C//DTD SVG 1.1//EN" "http://www.w3.org/Graphics/SVG/1.1/DTD/svg11.dtd" >
<svg xmlns="http://www.w3.org/2000/svg">
<metadata></metadata>
<defs>
<font id="social_glyphswebfont" horiz-adv-x="1685" >
<font-face units-per-em="2048" ascent="1638" descent="-410" />
<missing-glyph horiz-adv-x="614" />
<glyph horiz-adv-x="2048" />
<glyph horiz-adv-x="2048" />
<glyph unicode="&#xd;" horiz-adv-x="2048" />
<glyph unicode=" "  horiz-adv-x="614" />
<glyph unicode="&#x09;" horiz-adv-x="614" />
<glyph unicode="&#xa0;" horiz-adv-x="614" />
<glyph unicode="A" horiz-adv-x="964" d="M123 659h180v-659h299v659l182 -2l58 301h-240v121q0 26 15 41t30 17l15 2h180v301h-260q-70 0 -122 -22t-78 -52t-42 -70t-19.5 -66.5t-3.5 -51.5v-19l-14 -201h-180v-299z" />
<glyph unicode="B" horiz-adv-x="1863" d="M123 156q54 -4 80 -4q229 0 411 149q-108 1 -193 69t-116 173q27 -6 62 -6q45 0 88 12q-115 23 -191 119t-76 221v4q72 -40 150 -43q-68 48 -108 125t-40 166q0 93 46 174q125 -161 302.5 -257t381.5 -106q-9 38 -9 78q0 144 97.5 246t234.5 102q148 0 244 -110 q114 24 209 86q-39 -127 -146 -193q101 12 191 56q-62 -104 -166 -181q2 -16 2 -45q0 -140 -39 -280t-118.5 -268t-190 -227t-265 -157.5t-331.5 -58.5q-276 0 -510 156z" />
<glyph unicode="C" horiz-adv-x="1605" d="M123 270q0 -112 103.5 -191t293.5 -79q114 0 208 30.5t153 81.5t91 114t32 130q0 47 -11 85t-37.5 72t-46 53.5t-59.5 54.5l-68 53q-15 13 -22 20.5t-16 25t-9 36.5t8.5 37.5t17 28t25.5 26.5q36 28 58.5 49t47.5 54t37.5 74t12.5 91t-13 93t-39 77t-39.5 48t-39.5 38 h113l118 68h-378q-206 0 -330 -105q-58 -51 -88.5 -118.5t-30.5 -135.5q0 -118 83 -207.5t222 -89.5q25 0 60 7q-2 -5 -8 -21t-8.5 -27.5t-2.5 -25.5q0 -27 10 -53.5t18 -39t27 -36.5q-65 -5 -106.5 -9.5t-117 -25t-128.5 -53.5q-75 -45 -108 -107.5t-33 -122.5zM285 309 q0 141 159 195q87 31 193 31q22 0 43 -3q116 -85 158.5 -133.5t42.5 -115.5q0 -90 -71 -146.5t-200 -56.5q-147 0 -236 64t-89 165zM377 1174q0 87 41 141q22 27 57.5 44t71.5 17q72 0 127 -59.5t79.5 -136.5t24.5 -150q0 -94 -45 -139q-53 -53 -125 -53q-57 0 -103 34.5 t-73 87t-41 108.5t-14 106zM1122 1049h121v-119h119v119h121v120h-121v119h-119v-119h-121v-120z" />
<glyph unicode="D" d="M123 0h1440v172v428h-242v-360h-959v360h-239v-600z" />
<glyph unicode="E" d="M123 86q0 -35 25.5 -60.5t60.5 -25.5h1268q35 0 60.5 25.5t25.5 60.5v1268q0 35 -25.5 60.5t-60.5 25.5h-1268q-35 0 -60.5 -25.5t-25.5 -60.5v-1268zM303 180v719h162q-43 -88 -43 -180q0 -173 123.5 -296.5t296.5 -123.5q174 0 297 123t123 297q0 96 -41 180h161v-719 h-1079zM602 719q0 99 70.5 169t169.5 70q100 0 169.5 -69.5t69.5 -169.5q0 -99 -70 -169.5t-169 -70.5q-98 0 -169 71t-71 169zM1143 1139v59q0 51 34.5 86t84.5 35h59q51 0 86 -35t35 -86v-59q0 -50 -35 -84.5t-86 -34.5h-59q-50 0 -84.5 35t-34.5 84z" />
<glyph unicode="F" horiz-adv-x="1562" d="M123 0h239v899h-239v-899zM123 1081q0 -51 35 -86q37 -37 86 -37q46 0 84 35q34 37 34 84q0 52 -34 86q-38 35 -86 35q-46 0 -84 -35q-35 -35 -35 -82zM543 0h237v326q0 141 13 188q24 84 81 129q56 47 142 47q67 0 108 -28q45 -28 60 -82q18 -52 18 -220v-360h238v565 q0 159 -99 242q-58 49 -117.5 72.5t-138.5 23.5q-63 0 -137 -26q-53 -17 -166 -97v119h-239v-899z" />
<glyph unicode="G" horiz-adv-x="1683" d="M123 975q10 12 27.5 32t69.5 72.5t102 94.5t114.5 81.5t116.5 49.5q15 3 29 3q30 0 56 -14q36 -20 57 -57t38 -95.5t25.5 -110t20 -118t20.5 -104.5q38 -156 62.5 -222.5t53.5 -66.5q30 0 83.5 69.5t117.5 190.5q33 59 33 117q0 52 -26.5 83.5t-71.5 31.5q-48 0 -103 -35 q17 103 81 182.5t146.5 118.5t165.5 39q96 0 158 -57t62 -168q0 -29 -7 -76q-23 -129 -87.5 -262.5t-142 -236t-166.5 -195.5t-155 -148t-114 -86q-51 -31 -94 -31q-65 0 -121.5 48.5t-85.5 109.5q-23 48 -123.5 376.5t-122.5 354.5q-10 12 -31 12q-23 0 -55 -15t-53 -31 l-21 -15z" />
<glyph unicode="H" horiz-adv-x="1189" d="M123 113q0 -40 24 -65t58 -25q25 0 51 16l766 526q45 29 45 72q0 44 -45 70l-766 514q-26 16 -51 16q-34 0 -58 -25.5t-24 -66.5v-152v-819v-61z" />
<glyph unicode="I" d="M123 719q0 146 57 279.5t153 230t229.5 154t279.5 57.5q196 0 362 -97t262.5 -263t96.5 -361t-96.5 -360.5t-262.5 -262t-362 -96.5q-146 0 -279.5 57t-229.5 153t-153 229.5t-57 279.5zM242 719q0 -227 149 -395q206 306 514 397q-8 18 -24 49.5t-19 38.5 q-242 -70 -616 -70h-4v-20zM258 858q332 0 549 60q-100 178 -223 344q-122 -59 -208 -165t-118 -239zM477 242q165 -123 365 -123q120 0 229 45q-32 222 -121 446q-109 -30 -202 -90.5t-153.5 -126.5t-117.5 -151zM700 1303q124 -169 222 -349q192 79 309 224 q-169 143 -389 143q-72 0 -142 -18zM975 848q33 -68 47 -103q99 15 170 15q111 0 252 -25q-6 199 -129 357q-132 -158 -340 -244zM1069 633q76 -198 113 -410q99 68 165.5 170.5t88.5 224.5q-145 23 -240 23q-75 0 -127 -8z" />
<glyph unicode="J" horiz-adv-x="1443" d="M123 0l598 1440l600 -1440h-530v238l243 122l-18 37l-225 -114v110l141 76l-21 37l-120 -64v154h-134v-240l-122 84l-23 -34l145 -101v-305h-534z" />
<glyph unicode="K" horiz-adv-x="1683" d="M123 315q0 -131 94 -223t227 -92q87 0 164 41.5t124 113.5t48 156v451q0 32 16 53t46 21t47.5 -21t17.5 -53v-88l125 -70l109 68v100q-5 131 -86 218t-209 87q-129 0 -215.5 -87.5t-91.5 -215.5v-457q0 -29 -30.5 -51t-64.5 -22q-32 0 -58 21.5t-26 51.5v222h-237v-224z M905 313q1 -129 101 -221t233 -92t227.5 92t94.5 223v226h-240v-232q0 -30 -25.5 -54t-56.5 -24q-34 0 -66 24t-32 54v230l-125 -88l-111 84v-222z" />
<glyph unicode="L" d="M123 719q0 146 57 279.5t153 230t229.5 154t279.5 57.5t279.5 -57.5t230 -154t154 -230t57.5 -279.5t-57.5 -279.5t-154 -229.5t-230 -153t-279.5 -57q-102 0 -203 29q55 87 72 155l51 197q19 -36 69 -62t107 -26q172 0 279.5 138.5t107.5 352.5q0 80 -33 154.5 t-91 131.5t-144.5 91.5t-186.5 34.5q-99 0 -184.5 -27t-145 -72t-102 -103t-62.5 -120.5t-20 -125.5q0 -97 37.5 -171t110.5 -104q8 -4 12 -4q8 0 15 5.5t8 14.5l14 60q4 12 4 16q0 11 -12 23q-49 55 -49 141q0 142 98 243t256 101q141 0 220 -76t79 -198q0 -159 -64 -271 t-163 -112q-50 0 -83.5 31.5t-33.5 78.5q0 9 4 29q6 25 34.5 120.5t28.5 133.5q0 47 -25.5 78t-72.5 31q-59 0 -99 -54t-40 -133q0 -30 6 -58.5t12 -41.5l6 -13l-94 -393q-12 -52 -12 -131v-33q-192 85 -311 263t-119 395z" />
<glyph unicode="M" d="M0 455q0 -92 36.5 -176t97.5 -145.5t145.5 -97.5t177.5 -36h524q187 0 321 134t134 321l4 370l-4 21l-13 24l-20 17q-11 8 -94.5 10.5t-102.5 20.5q-12 11 -19.5 30t-10 32.5t-7.5 46.5q-1 9 -2 13q-4 33 -7.5 54.5t-8 37t-7 21.5t-9 19t-9.5 18q-43 96 -149.5 167.5 t-202.5 82.5h-317q-93 0 -177.5 -36t-145.5 -97.5t-97.5 -145.5t-36.5 -176v-530zM360 420v59q0 25 17.5 42.5t42.5 17.5h600q25 0 42 -17.5t17 -42.5v-59q0 -25 -17 -42.5t-42 -17.5h-600q-25 0 -42.5 17.5t-17.5 42.5zM360 958v62q0 25 17.5 42t42.5 17h360q25 0 42.5 -17 t17.5 -42v-62q0 -25 -17.5 -42t-42.5 -17h-360q-25 0 -42.5 17t-17.5 42z" />
<glyph unicode="N" horiz-adv-x="1982" d="M123 846l248 2l331 -565v-226h-219v-57h342h381v57h-215v226l387 450h264v113l-651 2v-117h168l-256 -297l-241 414h182v110h-721v-112zM1571 2h217v166h-217v-166zM1571 225h215l74 398h-289v-398z" />
<glyph unicode="O" horiz-adv-x="1503" d="M123 913q0 -10 1 -28.5t6.5 -71t15 -101t30 -109t47.5 -105.5t71.5 -80t98.5 -43q54 -10 117 -10q188 0 207 108l2 162q5 -6 13 -17t32.5 -37.5t48.5 -46.5t56.5 -35.5t60.5 -13.5q13 0 38.5 -4.5t68 -17t72.5 -45.5t30 -80v-127v-12q-13 -36 -36.5 -55.5t-40.5 -21.5 l-18 -1q-32 0 -70 1t-85 1q-18 9 -35 36.5t-16 55.5q-3 39 25 54.5t65 15.5l30 -2l-2 108h-10q-19 0 -40.5 -2t-57 -12t-62 -26.5t-46.5 -49.5t-21 -78q1 -58 18 -101.5t40.5 -65.5t54.5 -35t51.5 -16t40.5 -3h14l149 -2q6 1 17.5 4t43 19t60 39.5t63 70t58 106t38.5 151.5 q12 73 12 158q0 23 -1 46q2 33 2 94q0 201 -33.5 361.5t-78.5 195.5q-38 32 -96.5 50t-97.5 20l-40 2h-176q-2 5 -6 13t-19.5 28.5t-35 36.5t-54 29.5t-73.5 15.5q-80 -3 -104.5 -18t-24.5 -70v-207l-56 -64h-286q-32 -28 -51 -68t-22 -61t-3 -37v-2zM184 1145h236l61 53 v242zM975 750q1 4 3 11t9.5 24t16 30t22.5 24t29 11q24 0 53.5 -32t47.5 -64l18 -31z" />
<glyph unicode="P" d="M123 721q0 152 61 293l344 -942q-183 89 -294 263.5t-111 385.5zM242 1116q99 149 257.5 236.5t344.5 87.5q137 0 261.5 -49.5t223.5 -139.5h-10q-51 0 -86 -38t-35 -89q0 -28 12.5 -60.5t22.5 -49.5t37 -60q59 -103 59 -198q0 -92 -55 -232l-72 -241l-260 774l82 8 q13 1 20 10.5t7 20.5q0 12 -8.5 20.5t-22.5 7.5q-117 -10 -193 -10q-31 0 -78 2.5t-79 5.5l-31 2q-14 1 -22.5 -8t-8.5 -22q0 -11 7 -20t18 -9q39 -4 76 -8l112 -307l-157 -471l-263 778l84 8q27 3 27 29q0 13 -9.5 22t-23.5 8q-116 -10 -190 -10zM639 29l217 628l221 -606 q4 -8 4 -10q-112 -41 -237 -41q-99 0 -205 29zM1204 98l221 635q54 134 54 258q0 51 -4 74q88 -163 88 -344q0 -196 -97.5 -362t-261.5 -261z" />
<glyph unicode="Q" horiz-adv-x="2009" d="M123 879q0 -84 59 -146l674 -674q62 -59 148 -59t145 59l672 674q59 59 59 146q0 88 -59 147l-4 2l-707 -709q-50 -47 -115 -47h-30l-7 4q-43 12 -77 46l-465 464q-47 47 -47 115t47 115l137 137q47 47 115 47q67 0 114 -47l213 -215l457 457l-303 303q-56 59 -145 59 t-148 -59l-674 -672q-59 -62 -59 -147zM469 901q0 -22 16 -41l465 -467q16 -13 35 -16h6h2q22 0 41 16l836 836q16 16 16 41q0 28 -16 41l-137 139q-19 16 -41 16q-25 0 -41 -16l-658 -659l-288 288q-17 17 -41 17t-41 -17l-138 -137q-16 -16 -16 -41z" />
<glyph unicode="R" d="M123 451q0 -187 125.5 -319t304.5 -132q98 0 184 44t146 120l-54 135q-41 -80 -114.5 -128t-161.5 -48q-129 0 -221 96t-92 232q0 135 92 230t221 95q95 0 173 -53t112 -141l137 -326l14 -37q45 -108 111 -160.5t176 -52.5h6q118 0 198 72q82 74 83 190q0 104 -50.5 159 t-166.5 95q-10 3 -36 11.5t-34.5 11.5t-28.5 10.5t-27.5 12t-21.5 13t-19 16.5t-12 19t-9.5 24t-2.5 28q0 48 32.5 80t82.5 32q74 0 121 -69l92 49q-72 131 -207 131q-107 0 -169.5 -62t-62.5 -165q0 -51 15.5 -90t49 -69t78 -52t111.5 -45q36 -13 51.5 -19t39 -18.5t33 -24 t17 -30.5t7.5 -44q0 -66 -50 -109q-47 -40 -118 -40h-10q-73 3 -108.5 40t-69.5 120q-27 65 -61.5 148t-56.5 135t-24 57q-56 132 -159 204t-236 72q-117 0 -216 -60t-156.5 -163t-57.5 -225z" />
<glyph unicode="S" horiz-adv-x="1673" d="M123 16h430q130 0 220.5 65.5t90.5 190.5q0 83 -41.5 141t-120.5 81q121 59 121 182q0 223 -284 223h-416v-883zM301 160v241h227q136 0 136 -127q0 -114 -138 -114h-225zM301 547v205h199q61 0 97 -21.5t36 -79.5q0 -104 -119 -104h-213zM909 334q0 -149 89.5 -241.5 t240.5 -92.5q109 0 190 58.5t117 170.5h-155q-8 -34 -52.5 -66t-95.5 -32q-71 0 -112 49t-44 133h461q1 18 1 36q1 129 -71 219q-82 102 -239 102q-145 0 -237.5 -96t-92.5 -240zM1075 721h355v119h-355v-119zM1087 426q2 45 36.5 79t109.5 34q66 0 97.5 -24t43.5 -89h-287z " />
<glyph unicode="T" horiz-adv-x="1085" d="M123 840v229q6 1 15.5 4t37.5 15t53.5 28.5t56.5 46.5t53.5 66.5t38 91.5t15.5 119h209v-361h299v-241h-299v-432q0 -62 52.5 -116t138.5 -54q34 0 64.5 8t49 20t32 23.5t19.5 19.5l5 8v-235q-4 -3 -11.5 -8.5t-35 -19.5t-59 -24.5t-82.5 -19t-107 -8.5q-150 0 -257.5 96 t-107.5 230v514h-180z" />
<glyph unicode="U" d="M123 207q0 -86 60 -146.5t145 -60.5q83 0 141.5 60.5t58.5 146.5q0 85 -58.5 145t-141.5 60q-85 0 -145 -60t-60 -145zM123 678q8 0 22.5 -1.5t58.5 -9.5t87.5 -20t102.5 -37.5t110 -58.5t104.5 -85.5t92.5 -116t66 -153.5t32 -194h284q0 12 -0.5 32.5t-9 83.5t-23 124.5 t-48 145.5t-78.5 157t-120 148.5t-167 130.5t-225 92.5t-289 44.5v-283zM125 1157q14 -1 38 -3.5t99 -18t148.5 -37.5t174 -67t188 -102.5t178.5 -147.5t158 -198t114.5 -258.5t58.5 -324.5h281q1 19 1 47v30q0 49 -22.5 191t-67.5 273t-150 293.5t-252 283.5t-393 212.5 t-554 109.5v-283z" />
<glyph unicode="V" d="M123 995q0 160 115.5 271.5t279.5 111.5q116 0 215 -61q44 8 107 8q134 0 256.5 -50.5t210.5 -136.5t140 -204t52 -248q0 -42 -6 -86q70 -99 70 -217q0 -158 -116 -270.5t-280 -112.5q-115 0 -209 57q-65 -10 -118 -10q-180 0 -332.5 85.5t-241 233t-88.5 320.5 q0 56 8 100q-63 94 -63 209zM442 444q0 -55 60 -112q73 -68 161 -96q71 -23 181 -22q27 0 57 1q134 6 237 91t103 192q0 34 -16 77q-14 31 -34.5 57t-42 44.5t-54 35.5t-58.5 27t-67 21t-68 17t-73 16t-72 16q-52 11 -77.5 34.5t-25.5 51.5q0 45 51 81q50 36 117 36h4 q42 -1 81 -17.5t68 -39.5t54 -45t48.5 -36t41.5 -12q32 3 56 29.5t24 62.5q0 54 -59 105q-128 106 -318 106q-19 0 -73 -4q-114 -10 -197 -80t-94 -192q-1 -10 -1 -20q0 -39 16 -73q20 -44 56 -75t85 -55.5t99 -39t103 -22.5q82 -11 146.5 -40.5t64.5 -74.5q0 -28 -29 -61 q-48 -53 -135 -53q-91 0 -164 41q-13 8 -34 30t-38.5 41.5t-45.5 34t-56 13.5q-35 -3 -58.5 -28.5t-23.5 -62.5z" />
<glyph unicode="W" horiz-adv-x="1925" d="M123 0h840v330l-2 -2l-310 233l-327 -336l256 391l-457 345v-961zM147 1044l814 -614l2 2v647h-740q-45 0 -76 -35zM963 0h839v961l-456 -345l256 -391l-330 336l-307 -233l-2 2v-330zM963 432l2 -2l811 614q-32 35 -74 35h-739v-647z" />
<glyph unicode="X" d="M123 719q0 105 74.5 179.5t179.5 74.5q92 0 162 -60l516 256v17q0 104 74 179t178 75q106 0 181 -75t75 -179q0 -106 -75 -180t-181 -74q-93 0 -162 59l-516 -258q0 -2 1 -6.5t1 -7.5q0 -2 -1 -6.5t-1 -7.5l516 -259q68 62 162 62q106 0 181 -74t75 -180q0 -104 -75 -179 t-181 -75q-104 0 -178 75t-74 179v14l-516 258q-71 -61 -162 -61q-104 0 -179 75t-75 179z" />
<glyph unicode="&#x2000;" horiz-adv-x="878" />
<glyph unicode="&#x2001;" horiz-adv-x="1757" />
<glyph unicode="&#x2002;" horiz-adv-x="878" />
<glyph unicode="&#x2003;" horiz-adv-x="1757" />
<glyph unicode="&#x2004;" horiz-adv-x="585" />
<glyph unicode="&#x2005;" horiz-adv-x="439" />
<glyph unicode="&#x2006;" horiz-adv-x="292" />
<glyph unicode="&#x2007;" horiz-adv-x="292" />
<glyph unicode="&#x2008;" horiz-adv-x="219" />
<glyph unicode="&#x2009;" horiz-adv-x="351" />
<glyph unicode="&#x200a;" horiz-adv-x="97" />
<glyph unicode="&#x202f;" horiz-adv-x="351" />
<glyph unicode="&#x205f;" horiz-adv-x="439" />
<glyph unicode="&#x25fc;" horiz-adv-x="1024" d="M0 0z" />
</font>
</defs>
</svg>
